找回密码

蓝光电影网

查看: 66|回复: 2
打印 上一主题 下一主题

[剧情片] 金手套 The.Golden.Glove.2019.720p.BluRay.x264-GUACAMOLE 4.37GB

[复制链接]

 成长值: 1840

跳转到指定楼层
1#


译  名 金手套 / The Golden Glove
片  名 Der Goldene Handschuh
年  代 2019
产  地 德国 / 法国
类  别 剧情 / 惊悚 / 犯罪
语  言 德语
上映日期 2019-02-09(柏林电影节)
IMDb评分  6.7/10 from 3335 users
IMDb链接  https://www.imdb.com/title/tt7670212
豆瓣评分 6.4/10 from 2241 users
豆瓣链接 https://movie.douban.com/subject/27205132/
片  长 110分钟
导  演 法提赫·阿金 Fatih Akin
编  剧 法提赫·阿金 Fatih Akin / 海因茨·施特隆克 Heinz Strunk
主  演 乔纳斯·达斯勒 Jonas Dassler
       马克·霍泽曼 Marc Hosemann
       亚当·布斯多柯斯 Adam Bousdoukos
       卡特加·斯图特 Katja Studt
       玛格丽特·提塞尔 Margarete Tiesel
       特里斯坦·格贝尔 Tristan G?bel
       菲利普·巴尔特斯 Philipp Baltus
       玛蒂娜·艾特纳-阿奇姆彭 Martina Eitner-Acheampong
       维多莉亚·塔拉特曼斯多夫 Victoria Trauttmansdorff
       哈克·波姆 Hark Bohm
       乌维·罗德 Uwe Rohde
       杰西卡·科斯马拉 Jessica Kosmalla


标  签 犯罪 | 德国 | 真实事件改编 | 惊悚 | 2019 | 剧情 | 恐怖 | 柏林电影节

简  介  

  德国导演法提赫·阿金将拍摄一部犯罪题材新片。影片改编自海因茨·施特龙克的小说《金手套》,故事源自真实事件。1970年至1975年,一个名叫弗里茨·洪卡的心理变态凶犯在汉堡红灯区谋杀了四名女子,他挑选“猎物”的地点是家名为“金手套”的酒吧。

获奖情况  

  第69届柏林国际电影节(2019)
  金熊奖(提名) 法提赫·阿金
  1. Video
  2. ID                                       : 1
  3. Format                                   : AVC
  4. Format/Info                              : Advanced Video Codec
  5. Format profile                           : High@L4
  6. Format settings                          : CABAC / 5 Ref Frames
  7. Format settings, CABAC                   : Yes
  8. Format settings, Reference frames        : 5 frames
  9. Codec ID                                 : V_MPEG4/ISO/AVC
  10. Duration                                 : 1 h 49 min
  11. Bit rate                                 : 4 173 kb/s
  12. Width                                    : 1 280 pixels
  13. Height                                   : 688 pixels
  14. Display aspect ratio                     : 1.85:1
  15. Frame rate mode                          : Constant
  16. Frame rate                               : 23.976 (24000/1001) FPS
  17. Color space                              : YUV
  18. Chroma subsampling                       : 4:2:0
  19. Bit depth                                : 8 bits
  20. Scan type                                : Progressive
  21. Bits/(Pixel*Frame)                       : 0.198
  22. Stream size                              : 3.20 GiB (73%)
  23. Writing library                          : x264 core 157 r2969 d4099dd
  24. Encoding settings                        : cabac=1 / ref=5 / deblock=1:0:0 / analyse=0x3:0x113 / me=umh / subme=8 / psy=1 / psy_rd=1.00:0.00 / mixed_ref=1 / me_range=16 / chroma_me=1 / trellis=2 / 8x8dct=1 / cqm=0 / deadzone=21,11 / fast_pskip=0 / chroma_qp_offset=-2 / threads=21 / lookahead_threads=3 / sliced_threads=0 / nr=0 / decimate=1 / interlaced=0 / bluray_compat=0 / constrained_intra=0 / bframes=3 / b_pyramid=2 / b_adapt=1 / b_bias=0 / direct=1 / weightb=1 / open_gop=0 / weightp=2 / keyint=250 / keyint_min=23 / scenecut=40 / intra_refresh=0 / rc_lookahead=50 / rc=2pass / mbtree=1 / bitrate=4173 / ratetol=1.0 / qcomp=0.60 / qpmin=0 / qpmax=69 / qpstep=4 / cplxblur=20.0 / qblur=0.5 / ip_ratio=1.40 / aq=1:1.00
  25. Default                                  : Yes
  26. Forced                                   : No

  27. Audio
  28. ID                                       : 2
  29. Format                                   : DTS
  30. Format/Info                              : Digital Theater Systems
  31. Codec ID                                 : A_DTS
  32. Duration                                 : 1 h 49 min
  33. Bit rate mode                            : Constant
  34. Bit rate                                 : 1 509 kb/s
  35. Channel(s)                               : 6 channels
  36. Channel layout                           : C L R Ls Rs LFE
  37. Sampling rate                            : 48.0 kHz
  38. Frame rate                               : 93.750 FPS (512 SPF)
  39. Bit depth                                : 24 bits
  40. Compression mode                         : Lossy
  41. Stream size                              : 1.16 GiB (27%)
  42. Language                                 : German
  43. Default                                  : Yes
  44. Forced                                   : No

  45. Text
  46. ID                                       : 3
  47. Format                                   : UTF-8
  48. Codec ID                                 : S_TEXT/UTF8
  49. Codec ID/Info                            : UTF-8 Plain Text
  50. Duration                                 : 1 h 42 min
  51. Bit rate                                 : 31 b/s
  52. Count of elements                        : 799
  53. Stream size                              : 23.7 KiB (0%)
  54. Language                                 : English
  55. Default                                  : Yes
  56. Forced                                   : Yes

  57. Menu
  58. 00:00:00.000                             : en:00:00:00.000
  59. 00:10:27.961                             : en:00:10:27.961
  60. 00:19:58.030                             : en:00:19:58.030
  61. 00:28:27.706                             : en:00:28:27.706
  62. 00:35:34.174                             : en:00:35:34.174
  63. 00:45:34.774                             : en:00:45:34.774
  64. 00:55:26.365                             : en:00:55:26.365
  65. 01:02:13.188                             : en:01:02:13.188
  66. 01:12:06.572                             : en:01:12:06.572
  67. 01:22:49.590                             : en:01:22:49.590
  68. 01:33:59.008                             : en:01:33:59.008
  69. 01:42:12.293                             : en:01:42:12.293
复制代码









分享到:  QQ好友和群QQ好友和群
收藏收藏
开通VIP免费下载本站所有资源---点这里
新手必看:资源下载常见问题---点这里
回复

使用道具 举报

2#
发表于 前天 09:00 | 只看该作者

楼主太厉害了!楼主,电影应该很好看我觉得蓝光电影网真是个好地方!
开通VIP免费下载本站所有资源---点这里
新手必看:资源下载常见问题---点这里
回复 支持 反对

使用道具 举报

3#
发表于 前天 15:03 | 只看该作者

感谢楼主的无私分享!要想蓝光电影网好 就靠你我他
开通VIP免费下载本站所有资源---点这里
新手必看:资源下载常见问题---点这里
回复 支持 反对

使用道具 举报

懒得打字嘛,点击右侧快捷回复 【右侧内容,后台自定义】
您需要登录后才可以回帖 登录 | 立即加入

本版积分规则

现在加入蓝光电影网,注册一个账号

QQ| 手机版|小黑屋| 蓝光电影网 |网站地图

Copyright © 2015-2019 Comsenz Inc.  Template by 蓝光电影论坛 All Rights Reserved.

Powered by 蓝光电影网 X3.4

特别声明:本站所有资源均由网上收集而来,版权归原影音公司所有,如果侵犯了你的权益,请通知我们,我们会及时删除侵权内容.

快速回复 返回顶部 返回列表
澳门网上博彩攻略-网上博彩攻略-澳门bbin网址-澳门体育网址-蓝光电影网