找回密码

蓝光电影网

查看: 7|回复: 0
打印 上一主题 下一主题

[喜剧片] 总统拍挡/三个总统一团糟 My.Fellow.Americans.1996.1080p.WEBRip.x264-RARBG 1.93GB

[复制链接]

 成长值: 1840

跳转到指定楼层
1#


译  名 总统拍挡 / 三个总统一团糟 / 总统有难
片  名 My Fellow Americans
年  代 1996
产  地 美国
类  别 喜剧 / 冒险
语  言 英语 / 西班牙语
上映日期 1996-12-20(美国)
IMDb评分  6.5/10 from 13567 users
IMDb链接  https://www.imdb.com/title/tt0117119
豆瓣评分 7.9/10 from 544 users
豆瓣链接 https://movie.douban.com/subject/1300855/
片  长 101分钟
导  演 彼得·西格尔 Peter Segal
编  剧 E. Jack Kaplan / 彼得·托兰 Peter Tolan / Richard Chapman
主  演 杰克·莱蒙 Jack Lemmon
       詹姆斯·加纳 James Garner
       丹·艾克罗伊德 Dan Aykroyd


标  签 喜剧 | 美国 | 政治 | 1996 | 美国电影 | 电影 | 黑色幽默 | 独立风格

简  介  

  他们——曾经执掌国家,如今却为自已的生计而忙碌,他们——是不同政党的对立方!他们——便是两个美国前总统!由于现任总统把他俩卷入到了一桩丑闻之中,两个曾争吵不休的前任总统不得不走到了一起,走遍全国寻求证据以证明自己的清白。一路上趣事不断,笑料百出,却也让他们了解到了真正的美国,以及自己曾给普通百姓所带来的影响。更意想不到的是正当他们焦头烂额、疲于奔命时,又遭到了一伙武装分子的连连追杀。。。。。。
  1. Video
  2. ID                                       : 1
  3. Format                                   : AVC
  4. Format/Info                              : Advanced Video Codec
  5. Format profile                           : High@L4
  6. Format settings                          : CABAC / 4 Ref Frames
  7. Format settings, CABAC                   : Yes
  8. Format settings, Reference frames        : 4 frames
  9. Codec ID                                 : avc1
  10. Codec ID/Info                            : Advanced Video Coding
  11. Duration                                 : 1 h 41 min
  12. Bit rate                                 : 2 500 kb/s
  13. Width                                    : 1 920 pixels
  14. Height                                   : 1 080 pixels
  15. Display aspect ratio                     : 16:9
  16. Frame rate mode                          : Constant
  17. Frame rate                               : 23.976 (23976/1000) FPS
  18. Color space                              : YUV
  19. Chroma subsampling                       : 4:2:0
  20. Bit depth                                : 8 bits
  21. Scan type                                : Progressive
  22. Bits/(Pixel*Frame)                       : 0.050
  23. Stream size                              : 1.77 GiB (92%)
  24. Writing library                          : x264 core 152 r2851M ba24899
  25. Encoding settings                        : cabac=1 / ref=4 / deblock=1:-1:-1 / analyse=0x3:0x113 / me=umh / subme=9 / psy=1 / psy_rd=1.00:0.15 / mixed_ref=1 / me_range=24 / chroma_me=1 / trellis=2 / 8x8dct=1 / cqm=0 / deadzone=21,11 / fast_pskip=1 / chroma_qp_offset=-3 / threads=16 / lookahead_threads=4 / sliced_threads=0 / nr=0 / decimate=1 / interlaced=0 / bluray_compat=0 / constrained_intra=0 / bframes=3 / b_pyramid=2 / b_adapt=2 / b_bias=0 / direct=3 / weightb=1 / open_gop=0 / weightp=2 / keyint=250 / keyint_min=25 / scenecut=40 / intra_refresh=0 / rc_lookahead=50 / rc=2pass / mbtree=1 / bitrate=2500 / ratetol=1.0 / qcomp=0.60 / qpmin=0 / qpmax=69 / qpstep=4 / cplxblur=20.0 / qblur=0.5 / vbv_maxrate=31250 / vbv_bufsize=31250 / nal_hrd=none / filler=0 / ip_ratio=1.40 / aq=3:1.00
  26. Encoded date                             : UTC 2019-10-16 02:17:36
  27. Tagged date                              : UTC 2019-10-16 02:17:36
  28. Codec configuration box                  : avcC

  29. Audio
  30. ID                                       : 2
  31. Format                                   : AAC LC
  32. Format/Info                              : Advanced Audio Codec Low Complexity
  33. Codec ID                                 : mp4a-40-2
  34. Duration                                 : 1 h 41 min
  35. Bit rate mode                            : Constant
  36. Bit rate                                 : 224 kb/s
  37. Channel(s)                               : 6 channels
  38. Channel layout                           : C L R Ls Rs LFE
  39. Sampling rate                            : 48.0 kHz
  40. Frame rate                               : 46.875 FPS (1024 SPF)
  41. Compression mode                         : Lossy
  42. Stream size                              : 162 MiB (8%)
  43. Language                                 : English
  44. Default                                  : Yes
  45. Alternate group                          : 1
  46. Encoded date                             : UTC 2019-10-16 02:17:36
  47. Tagged date                              : UTC 2019-10-16 02:17:36
复制代码









分享到:  QQ好友和群QQ好友和群
收藏收藏
开通VIP免费下载本站所有资源---点这里
新手必看:资源下载常见问题---点这里
回复

使用道具 举报

懒得打字嘛,点击右侧快捷回复 【右侧内容,后台自定义】
您需要登录后才可以回帖 登录 | 立即加入

本版积分规则

现在加入蓝光电影网,注册一个账号

QQ| 手机版|小黑屋| 蓝光电影网 |网站地图

Copyright © 2015-2019 Comsenz Inc.  Template by 蓝光电影论坛 All Rights Reserved.

Powered by 蓝光电影网 X3.4

特别声明:本站所有资源均由网上收集而来,版权归原影音公司所有,如果侵犯了你的权益,请通知我们,我们会及时删除侵权内容.

快速回复 返回顶部 返回列表
澳门网上博彩攻略-网上博彩攻略-澳门bbin网址-澳门体育网址-蓝光电影网