找回密码

蓝光电影网

查看: 661|回复: 22
打印 上一主题 下一主题

[8bit.SDR] 美国黑帮/犯罪帝国 American.Gangster.2007.EXTENDED.2160p.BluRay.x264.8bit.SDR.DTS-X.7.1-SWTYBLZ 67.97GB

[复制链接]

 成长值: 1840

跳转到指定楼层
1#


译  名 美国黑帮 / 犯罪帝国 / 美国土匪
片  名 American Gangster
年  代 2007
产  地 美国
类  别 剧情 / 犯罪
语  言 英语
上映日期 2007-11-02(美国)
IMDb评分  7.8/10 from 371827 users
IMDb链接  https://www.imdb.com/title/tt0765429
豆瓣评分 7.9/10 from 37813 users
豆瓣链接 https://movie.douban.com/subject/1578503/
片  长 157 分钟
导  演 Ridley Scott
编  剧 Steven Zaillian / Mark Jacobson
主  演 丹泽尔·华盛顿 Denzel Washington
       罗素·克劳 Russell Crowe
       切瓦特·埃加福特 Chiwetel Ejiofor
       乔什·布洛林 Josh Brolin
       里玛莉·娜妲 Lymari Nadal
       泰德·拉文 Ted Levine
       罗杰·格午埃文·史密斯 Roger Guenveur Smith
       约翰·浩克斯 John Hawkes
       RZA
       尤尔·瓦斯克斯 Yul Vazquez
       Malcolm Goodwin
       露比·迪 Ruby Dee
       Ruben Santiago-Hudson
       卡拉·古奇诺 Carla Gugino
       Skyler Fortgang


标  签 黑帮 | 美国 | 犯罪 | DenzelWashington | 美国黑帮 | 美国电影 | RussellCrowe | 2007

简  介  

  上世纪70年代,哈莱姆黑人区,弗兰克?卢卡斯(丹泽尔?华盛顿 饰)是黑帮老大约翰逊的司机。约翰逊暴毙后,弗兰克充分利用了这个来之不易的机会,将地下世界的所有权利分配进行了重组,成功上位,接手大佬事业,掌控了毒品交易大权。期间他远赴东南亚金三角走私高纯度海洛因,张罗自己的家族兄弟,集结了一帮为他卖命的手下,一股黑暗势力正在兴起。
  另一边,警察里奇?罗伯茨(卢塞尔?克劳 饰)家庭破裂,与主流社会格格不入,整天以一副邋遢鬼模样流连于街头。他慢慢觉察出毒品圈内的风起云涌,,并展开了秘密调查。
  随着调查的深入,罗伯茨和卢卡斯之间的距离越来越短,两个气质相近,惺惺相惜的男人,不可避免地进行正面对决……

获奖情况  

  第80届奥斯卡金像奖(2008)
  最佳女配角(提名) 露比·迪
  最佳艺术指导(提名) 阿瑟·马克斯 / Beth A. Rubino

  第65届金球奖(2008)
  电影类 最佳剧情片(提名)
  电影类 最佳导演(提名) 雷德利·斯科特
  电影类 剧情片最佳男主角(提名) 丹泽尔·华盛顿

  第61届英国电影学院奖(2008)
  电影奖 最佳影片(提名) 雷德利·斯科特 / 布莱恩·格雷泽
  电影奖 最佳原创剧本(提名) 斯蒂文·泽里安
  电影奖 最佳摄影(提名) 哈里斯·萨维德斯
  电影奖 最佳剪辑(提名) 彼得罗·斯卡利亚
  电影奖 最佳原创音乐(提名) 马克·斯特雷滕菲尔德

  第17届MTV电影奖(2008)
  MTV电影奖 最佳男演员(提名) 丹泽尔·华盛顿
  MTV电影奖 最佳反派(提名) 丹泽尔·华盛顿
  1. Video
  2. ID                                       : 1
  3. Format                                   : AVC
  4. Format/Info                              : Advanced Video Codec
  5. Format profile                           : High@L4
  6. Format settings                          : CABAC / 5 Ref Frames
  7. Format settings, CABAC                   : Yes
  8. Format settings, Reference frames        : 5 frames
  9. Codec ID                                 : V_MPEG4/ISO/AVC
  10. Duration                                 : 2 h 55 min
  11. Bit rate                                 : 48.6 Mb/s
  12. Width                                    : 3 840 pixels
  13. Height                                   : 2 076 pixels
  14. Display aspect ratio                     : 1.85:1
  15. Frame rate mode                          : Constant
  16. Frame rate                               : 23.976 (24000/1001) FPS
  17. Color space                              : YUV
  18. Chroma subsampling                       : 4:2:0
  19. Bit depth                                : 8 bits
  20. Scan type                                : Progressive
  21. Bits/(Pixel*Frame)                       : 0.255
  22. Stream size                              : 59.7 GiB (88%)
  23. Title                                    : American.Gangster.2007.EXTENDED.2160p.BluRay.x264.8bit.SDR.DTS-X.7.1-SWTYBLZ
  24. Writing library                          : x264 core 157 r2935 545de2f
  25. Encoding settings                        : cabac=1 / ref=5 / deblock=1:-1:-1 / analyse=0x3:0x113 / me=umh / subme=10 / psy=1 / psy_rd=1.00:0.15 / mixed_ref=1 / me_range=48 / chroma_me=1 / trellis=2 / 8x8dct=1 / cqm=0 / deadzone=21,11 / fast_pskip=1 / chroma_qp_offset=-3 / threads=65 / lookahead_threads=5 / sliced_threads=0 / nr=0 / decimate=0 / interlaced=0 / bluray_compat=0 / constrained_intra=0 / bframes=3 / b_pyramid=2 / b_adapt=2 / b_bias=0 / direct=3 / weightb=1 / open_gop=0 / weightp=2 / keyint=250 / keyint_min=23 / scenecut=40 / intra_refresh=0 / rc_lookahead=50 / rc=crf / mbtree=1 / crf=24.0 / qcomp=0.60 / qpmin=0 / qpmax=69 / qpstep=4 / ip_ratio=1.40 / aq=1:1.00
  26. Default                                  : Yes
  27. Forced                                   : No

  28. Audio #1
  29. ID                                       : 2
  30. Format                                   : DTS XLL X
  31. Format/Info                              : Digital Theater Systems
  32. Commercial name                          : DTS-HD Master Audio
  33. Codec ID                                 : A_DTS
  34. Duration                                 : 2 h 55 min
  35. Bit rate mode                            : Variable
  36. Bit rate                                 : 5 844 kb/s
  37. Channel(s)                               : 8 channels
  38. Channel(s)_Original                      : Object Based
  39. Channel layout                           : Object Based
  40. Sampling rate                            : 48.0 kHz
  41. Frame rate                               : 93.750 FPS (512 SPF)
  42. Bit depth                                : 24 bits
  43. Stream size                              : 7.18 GiB (11%)
  44. Title                                    : American.Gangster.2007.EXTENDED.2160p.BluRay.x264.8bit.SDR.DTS-X.7.1-SWTYBLZ
  45. Language                                 : English
  46. Default                                  : Yes
  47. Forced                                   : No

  48. Audio #2
  49. ID                                       : 3
  50. Format                                   : AC-3
  51. Format/Info                              : Audio Coding 3
  52. Commercial name                          : Dolby Digital
  53. Codec ID                                 : A_AC3
  54. Duration                                 : 2 h 55 min
  55. Bit rate mode                            : Constant
  56. Bit rate                                 : 640 kb/s
  57. Channel(s)                               : 6 channels
  58. Channel layout                           : L R C LFE Ls Rs
  59. Sampling rate                            : 48.0 kHz
  60. Frame rate                               : 31.250 FPS (1536 SPF)
  61. Bit depth                                : 16 bits
  62. Compression mode                         : Lossy
  63. Stream size                              : 805 MiB (1%)
  64. Title                                    : American.Gangster.2007.EXTENDED.2160p.BluRay.x264.8bit.SDR.DTS-X.7.1-SWTYBLZ
  65. Language                                 : English
  66. Service kind                             : Complete Main
  67. Default                                  : No
  68. Forced                                   : No

  69. Text #1
  70. ID                                       : 4
  71. Format                                   : UTF-8
  72. Codec ID                                 : S_TEXT/UTF8
  73. Codec ID/Info                            : UTF-8 Plain Text
  74. Duration                                 : 2 h 46 min
  75. Bit rate                                 : 69 b/s
  76. Count of elements                        : 2627
  77. Stream size                              : 84.0 KiB (0%)
  78. Title                                    : English-SRT
  79. Language                                 : English
  80. Default                                  : Yes
  81. Forced                                   : No

  82. Text #2
  83. ID                                       : 5
  84. Format                                   : PGS
  85. Muxing mode                              : zlib
  86. Codec ID                                 : S_HDMV/PGS
  87. Codec ID/Info                            : Picture based subtitle format used on BDs/HD-DVDs
  88. Duration                                 : 2 h 47 min
  89. Bit rate                                 : 41.2 kb/s
  90. Count of elements                        : 5600
  91. Stream size                              : 49.4 MiB (0%)
  92. Title                                    : English-PGS
  93. Language                                 : English
  94. Default                                  : No
  95. Forced                                   : No

  96. Text #3
  97. ID                                       : 6
  98. Format                                   : PGS
  99. Muxing mode                              : zlib
  100. Codec ID                                 : S_HDMV/PGS
  101. Codec ID/Info                            : Picture based subtitle format used on BDs/HD-DVDs
  102. Duration                                 : 2 h 46 min
  103. Bit rate                                 : 34.0 kb/s
  104. Count of elements                        : 4562
  105. Stream size                              : 40.6 MiB (0%)
  106. Title                                    : Spanish-PGS
  107. Language                                 : Spanish
  108. Default                                  : No
  109. Forced                                   : No

  110. Text #4
  111. ID                                       : 7
  112. Format                                   : PGS
  113. Muxing mode                              : zlib
  114. Codec ID                                 : S_HDMV/PGS
  115. Codec ID/Info                            : Picture based subtitle format used on BDs/HD-DVDs
  116. Duration                                 : 2 h 46 min
  117. Bit rate                                 : 33.6 kb/s
  118. Count of elements                        : 4552
  119. Stream size                              : 40.1 MiB (0%)
  120. Title                                    : French-PGS
  121. Language                                 : French
  122. Default                                  : No
  123. Forced                                   : No

  124. Menu
  125. 00:00:00.000                             : en:Chapter 01
  126. 00:06:48.449                             : en:Chapter 02
  127. 00:14:07.263                             : en:Chapter 03
  128. 00:25:42.707                             : en:Chapter 04
  129. 00:32:19.938                             : en:Chapter 05
  130. 00:37:33.584                             : en:Chapter 06
  131. 00:43:48.876                             : en:Chapter 07
  132. 00:51:25.457                             : en:Chapter 08
  133. 00:57:21.521                             : en:Chapter 09
  134. 01:15:30.651                             : en:Chapter 10
  135. 01:20:53.181                             : en:Chapter 11
  136. 01:29:01.252                             : en:Chapter 12
  137. 01:37:22.169                             : en:Chapter 13
  138. 01:44:01.610                             : en:Chapter 14
  139. 01:55:33.885                             : en:Chapter 15
  140. 02:04:59.116                             : en:Chapter 16
  141. 02:13:00.639                             : en:Chapter 17
  142. 02:20:08.525                             : en:Chapter 18
  143. 02:31:52.603                             : en:Chapter 19
  144. 02:48:01.446                             : en:Chapter 20
复制代码









分享到:  QQ好友和群QQ好友和群
收藏收藏
开通VIP免费下载本站所有资源---点这里
新手必看:资源下载常见问题---点这里
回复

使用道具 举报

2#
发表于 4 天前 | 只看该作者
是非得失大概是让对方撒大声地
开通VIP免费下载本站所有资源---点这里
新手必看:资源下载常见问题---点这里
回复 支持 反对

使用道具 举报

3#
发表于 3 天前 | 只看该作者
牛牛牛牛牛
开通VIP免费下载本站所有资源---点这里
新手必看:资源下载常见问题---点这里
回复 支持 反对

使用道具 举报

4#
发表于 3 天前 | 只看该作者
本帖最后由 我国人工 于 2019-10-16 13:39 编辑

开通VIP免费下载本站所有资源---点这里
新手必看:资源下载常见问题---点这里
回复 支持 反对

使用道具 举报

5#
发表于 3 天前 | 只看该作者
楼主发贴辛苦了,谢谢楼主分享!我觉得蓝光电影网是注册对了!
开通VIP免费下载本站所有资源---点这里
新手必看:资源下载常见问题---点这里
回复 支持 反对

使用道具 举报

6#
发表于 3 天前 | 只看该作者
楼主发贴辛苦了,谢谢楼主分享!我觉得蓝光电影网是注册对了!
开通VIP免费下载本站所有资源---点这里
新手必看:资源下载常见问题---点这里
回复 支持 反对

使用道具 举报

7#
发表于 3 天前 | 只看该作者
楼主发贴辛苦了,谢谢楼主分享!我觉得蓝光电影网是注册对了!
开通VIP免费下载本站所有资源---点这里
新手必看:资源下载常见问题---点这里
回复 支持 反对

使用道具 举报

8#
发表于 3 天前 | 只看该作者

我看不错噢 谢谢楼主!蓝光电影网越来越好!
开通VIP免费下载本站所有资源---点这里
新手必看:资源下载常见问题---点这里
回复 支持 反对

使用道具 举报

9#
发表于 3 天前 | 只看该作者
新人报道,请多关照!
开通VIP免费下载本站所有资源---点这里
新手必看:资源下载常见问题---点这里
回复 支持 反对

使用道具 举报

10#
发表于 3 天前 | 只看该作者

楼主太厉害了!楼主,电影应该很好看我觉得蓝光电影网真是个好地方!
开通VIP免费下载本站所有资源---点这里
新手必看:资源下载常见问题---点这里
回复 支持 反对

使用道具 举报

懒得打字嘛,点击右侧快捷回复 【右侧内容,后台自定义】
您需要登录后才可以回帖 登录 | 立即加入

本版积分规则

现在加入蓝光电影网,注册一个账号

QQ| 手机版|小黑屋| 蓝光电影网 |网站地图

Copyright © 2015-2019 Comsenz Inc.  Template by 蓝光电影论坛 All Rights Reserved.

Powered by 蓝光电影网 X3.4

特别声明:本站所有资源均由网上收集而来,版权归原影音公司所有,如果侵犯了你的权益,请通知我们,我们会及时删除侵权内容.

快速回复 返回顶部 返回列表
澳门网上博彩攻略-网上博彩攻略-澳门bbin网址-澳门体育网址-蓝光电影网