找回密码

蓝光电影网

查看: 541|回复: 9
打印 上一主题 下一主题

[8bit.SDR] 狮子王/狮子王真人版 The.Lion.King.2019.2160p.BluRay.x264.8bit.SDR.DTS-HD.MA.TrueHD.7.1.Atmos-SWTYBLZ 37.18GB

[复制链接]

 成长值: 1840

跳转到指定楼层
1#


译  名 狮子王 / 狮子王真人版 / 狮子王真实版 / 狮子王真狮版
片  名 The Lion King
年  代 2019
产  地 美国
类  别 剧情 / 动画 / 冒险
语  言 英语 / 科萨语
上映日期 2019-07-12(中国大陆) / 2019-07-19(美国)
IMDb评分  7.1/10 from 104480 users
IMDb链接  http://www.imdb.com/title/tt6105098
豆瓣评分 7.4/10 from 196500 users
豆瓣链接 https://movie.douban.com/subject/26884354/
片  长 118分钟
导  演 乔恩·费儒 Jon Favreau
编  剧 杰夫·内桑森 Jeff Nathanson / 布兰达?查普曼 Brenda Chapman / 艾琳·梅琪 Irene Mecchi / 乔纳森·罗伯茨 Jonathan Roberts / 琳达·伍尔芙顿 Linda Woolverton
主  演 唐纳德·格洛弗 Donald Glover
       阿尔法·伍达德 Alfre Woodard
       詹姆斯·厄尔·琼斯 James Earl Jones
       切瓦特·埃加福特 Chiwetel Ejiofor
       科甘-迈克尔·凯 Keegan-Michael Key
       塞斯·罗根 Seth Rogen
       比利·艾希纳 Billy Eichner
       碧昂丝·诺尔斯 Beyoncé Knowles
       埃里克·安德烈 Eric André
       弗洛伦丝·卡松巴 Florence Kasumba
       约翰·卡尼 John Kani
       约翰·奥利弗 John Oliver
       艾米·塞德丽丝 Amy Sedaris


标  签 迪士尼 | 经典 | 动画 | 童年 | 美国 | 成长 | 2019 | 动物

简  介  

  非洲大草原上一轮红日冉冉升起,为高大的乞力马扎罗山披上层金色的光纱,所有的动物涌向了同一个地方——荣耀石,兴奋地等待着一个重大消息的宣布:它们的国王木法沙将迎来自己的新生儿。
  这个新生儿就是小狮子辛巴,它是木法沙的法定接班人、荣耀石未来的国王。
  小狮子王辛巴在众多热情的朋友的陪伴下,不但经历了生命中最光荣的时刻,也遭遇了最艰难的挑战,最后终于成为了森林之王,也在周而复始生生不息的自然中体会出生命的真义。

获奖情况  

  第5届豆瓣电影年度榜单(2018)
  最值得期待的外语电影(提名)
  1. Video
  2. ID                                       : 1
  3. Format                                   : AVC
  4. Format/Info                              : Advanced Video Codec
  5. Format profile                           : High@L4
  6. Format settings                          : CABAC / 5 Ref Frames
  7. Format settings, CABAC                   : Yes
  8. Format settings, Reference frames        : 5 frames
  9. Codec ID                                 : V_MPEG4/ISO/AVC
  10. Duration                                 : 1 h 58 min
  11. Bit rate                                 : 35.0 Mb/s
  12. Width                                    : 3 840 pixels
  13. Height                                   : 2 160 pixels
  14. Display aspect ratio                     : 16:9
  15. Frame rate mode                          : Constant
  16. Frame rate                               : 23.976 (24000/1001) FPS
  17. Color space                              : YUV
  18. Chroma subsampling                       : 4:2:0
  19. Bit depth                                : 8 bits
  20. Scan type                                : Progressive
  21. Bits/(Pixel*Frame)                       : 0.176
  22. Stream size                              : 28.9 GiB (78%)
  23. Title                                    : The.Lion.King.2019.2160p.BluRay.x264.8bit.SDR.DTS-HD.MA.TrueHD.7.1.Atmos-SWTYBLZ
  24. Writing library                          : x264 core 157 r2935 545de2f
  25. Encoding settings                        : cabac=1 / ref=5 / deblock=1:-1:-1 / analyse=0x3:0x113 / me=umh / subme=10 / psy=1 / psy_rd=1.00:0.15 / mixed_ref=1 / me_range=48 / chroma_me=1 / trellis=2 / 8x8dct=1 / cqm=0 / deadzone=21,11 / fast_pskip=1 / chroma_qp_offset=-3 / threads=48 / lookahead_threads=4 / sliced_threads=0 / nr=0 / decimate=0 / interlaced=0 / bluray_compat=0 / constrained_intra=0 / bframes=3 / b_pyramid=2 / b_adapt=2 / b_bias=0 / direct=3 / weightb=1 / open_gop=0 / weightp=2 / keyint=250 / keyint_min=23 / scenecut=40 / intra_refresh=0 / rc_lookahead=50 / rc=crf / mbtree=1 / crf=18.0 / qcomp=0.60 / qpmin=0 / qpmax=69 / qpstep=4 / ip_ratio=1.40 / aq=1:1.00
  26. Default                                  : Yes
  27. Forced                                   : No

  28. Audio #1
  29. ID                                       : 2
  30. Format                                   : MLP FBA 16-ch
  31. Format/Info                              : Meridian Lossless Packing FBA with 16-channel presentation
  32. Commercial name                          : Dolby TrueHD with Dolby Atmos
  33. Codec ID                                 : A_TRUEHD
  34. Duration                                 : 1 h 58 min
  35. Bit rate mode                            : Variable
  36. Bit rate                                 : 4 929 kb/s
  37. Maximum bit rate                         : 7 332 kb/s
  38. Channel(s)                               : 8 channels
  39. Channel layout                           : L R C LFE Ls Rs Lb Rb
  40. Sampling rate                            : 48.0 kHz
  41. Frame rate                               : 1 200.000 FPS (40 SPF)
  42. Compression mode                         : Lossless
  43. Stream size                              : 4.07 GiB (11%)
  44. Title                                    : The.Lion.King.2019.2160p.BluRay.x264.8bit.SDR.DTS-HD.MA.TrueHD.7.1.Atmos-SWTYBLZ
  45. Language                                 : English
  46. Default                                  : Yes
  47. Forced                                   : No
  48. Number of dynamic objects                : 13
  49. Bed channel count                        : 1 channel
  50. Bed channel configuration                : LFE

  51. Audio #2
  52. ID                                       : 3
  53. Format                                   : DTS XLL
  54. Format/Info                              : Digital Theater Systems
  55. Commercial name                          : DTS-HD Master Audio
  56. Codec ID                                 : A_DTS
  57. Duration                                 : 1 h 58 min
  58. Bit rate mode                            : Variable
  59. Bit rate                                 : 4 033 kb/s
  60. Channel(s)                               : 8 channels
  61. Channel layout                           : C L R LFE Lb Rb Lss Rss
  62. Sampling rate                            : 48.0 kHz
  63. Frame rate                               : 93.750 FPS (512 SPF)
  64. Bit depth                                : 24 bits
  65. Compression mode                         : Lossless
  66. Stream size                              : 3.33 GiB (9%)
  67. Title                                    : The.Lion.King.2019.2160p.BluRay.x264.8bit.SDR.DTS-HD.MA.TrueHD.7.1.Atmos-SWTYBLZ
  68. Language                                 : English
  69. Default                                  : No
  70. Forced                                   : No

  71. Audio #3
  72. ID                                       : 4
  73. Format                                   : AC-3
  74. Format/Info                              : Audio Coding 3
  75. Commercial name                          : Dolby Digital
  76. Codec ID                                 : A_AC3
  77. Duration                                 : 1 h 58 min
  78. Bit rate mode                            : Constant
  79. Bit rate                                 : 640 kb/s
  80. Channel(s)                               : 6 channels
  81. Channel layout                           : L R C LFE Ls Rs
  82. Sampling rate                            : 48.0 kHz
  83. Frame rate                               : 31.250 FPS (1536 SPF)
  84. Bit depth                                : 16 bits
  85. Compression mode                         : Lossy
  86. Stream size                              : 541 MiB (1%)
  87. Title                                    : The.Lion.King.2019.2160p.BluRay.x264.8bit.SDR.DTS-HD.MA.TrueHD.7.1.Atmos-SWTYBLZ
  88. Language                                 : English
  89. Service kind                             : Complete Main
  90. Default                                  : No
  91. Forced                                   : No

  92. Text #1
  93. ID                                       : 5
  94. Format                                   : UTF-8
  95. Codec ID                                 : S_TEXT/UTF8
  96. Codec ID/Info                            : UTF-8 Plain Text
  97. Duration                                 : 1 h 50 min
  98. Bit rate                                 : 49 b/s
  99. Count of elements                        : 1547
  100. Stream size                              : 40.0 KiB (0%)
  101. Title                                    : English-SRT
  102. Language                                 : English
  103. Default                                  : Yes
  104. Forced                                   : No

  105. Text #2
  106. ID                                       : 6
  107. Format                                   : UTF-8
  108. Codec ID                                 : S_TEXT/UTF8
  109. Codec ID/Info                            : UTF-8 Plain Text
  110. Duration                                 : 1 h 52 min
  111. Bit rate                                 : 55 b/s
  112. Count of elements                        : 1738
  113. Stream size                              : 45.1 KiB (0%)
  114. Title                                    : English-SDH-SRT
  115. Language                                 : English
  116. Default                                  : No
  117. Forced                                   : No

  118. Text #3
  119. ID                                       : 7
  120. Format                                   : PGS
  121. Muxing mode                              : zlib
  122. Codec ID                                 : S_HDMV/PGS
  123. Codec ID/Info                            : Picture based subtitle format used on BDs/HD-DVDs
  124. Duration                                 : 1 h 52 min
  125. Bit rate                                 : 37.3 kb/s
  126. Count of elements                        : 3420
  127. Stream size                              : 29.8 MiB (0%)
  128. Title                                    : English-PGS
  129. Language                                 : English
  130. Default                                  : No
  131. Forced                                   : No

  132. Text #4
  133. ID                                       : 8
  134. Format                                   : PGS
  135. Muxing mode                              : zlib
  136. Codec ID                                 : S_HDMV/PGS
  137. Codec ID/Info                            : Picture based subtitle format used on BDs/HD-DVDs
  138. Duration                                 : 1 h 56 min
  139. Bit rate                                 : 31.4 kb/s
  140. Count of elements                        : 2788
  141. Stream size                              : 26.2 MiB (0%)
  142. Title                                    : French-PGS
  143. Language                                 : French
  144. Default                                  : No
  145. Forced                                   : No

  146. Text #5
  147. ID                                       : 9
  148. Format                                   : PGS
  149. Muxing mode                              : zlib
  150. Codec ID                                 : S_HDMV/PGS
  151. Codec ID/Info                            : Picture based subtitle format used on BDs/HD-DVDs
  152. Duration                                 : 1 h 55 min
  153. Bit rate                                 : 25.9 kb/s
  154. Count of elements                        : 2556
  155. Stream size                              : 21.5 MiB (0%)
  156. Title                                    : French-PGS
  157. Language                                 : French
  158. Default                                  : No
  159. Forced                                   : No

  160. Text #6
  161. ID                                       : 10
  162. Format                                   : PGS
  163. Muxing mode                              : zlib
  164. Codec ID                                 : S_HDMV/PGS
  165. Codec ID/Info                            : Picture based subtitle format used on BDs/HD-DVDs
  166. Duration                                 : 1 h 55 min
  167. Bit rate                                 : 28.9 kb/s
  168. Count of elements                        : 2850
  169. Stream size                              : 24.0 MiB (0%)
  170. Title                                    : German-PGS
  171. Language                                 : German
  172. Default                                  : No
  173. Forced                                   : No

  174. Text #7
  175. ID                                       : 11
  176. Format                                   : PGS
  177. Muxing mode                              : zlib
  178. Codec ID                                 : S_HDMV/PGS
  179. Codec ID/Info                            : Picture based subtitle format used on BDs/HD-DVDs
  180. Duration                                 : 1 h 55 min
  181. Bit rate                                 : 28.1 kb/s
  182. Count of elements                        : 2716
  183. Stream size                              : 23.3 MiB (0%)
  184. Title                                    : Italian-PGS
  185. Language                                 : Italian
  186. Default                                  : No
  187. Forced                                   : No

  188. Text #8
  189. ID                                       : 12
  190. Format                                   : PGS
  191. Muxing mode                              : zlib
  192. Codec ID                                 : S_HDMV/PGS
  193. Codec ID/Info                            : Picture based subtitle format used on BDs/HD-DVDs
  194. Duration                                 : 1 h 55 min
  195. Bit rate                                 : 25.9 kb/s
  196. Count of elements                        : 2716
  197. Stream size                              : 21.4 MiB (0%)
  198. Title                                    : Norwegian-PGS
  199. Language                                 : Norwegian
  200. Default                                  : No
  201. Forced                                   : No

  202. Text #9
  203. ID                                       : 13
  204. Format                                   : PGS
  205. Muxing mode                              : zlib
  206. Codec ID                                 : S_HDMV/PGS
  207. Codec ID/Info                            : Picture based subtitle format used on BDs/HD-DVDs
  208. Duration                                 : 1 h 46 min
  209. Bit rate                                 : 32.7 kb/s
  210. Count of elements                        : 2742
  211. Stream size                              : 24.8 MiB (0%)
  212. Title                                    : Spanish-PGS
  213. Language                                 : Spanish
  214. Default                                  : No
  215. Forced                                   : No

  216. Text #10
  217. ID                                       : 14
  218. Format                                   : PGS
  219. Muxing mode                              : zlib
  220. Codec ID                                 : S_HDMV/PGS
  221. Codec ID/Info                            : Picture based subtitle format used on BDs/HD-DVDs
  222. Duration                                 : 1 h 55 min
  223. Bit rate                                 : 24.1 kb/s
  224. Count of elements                        : 1890
  225. Stream size                              : 20.0 MiB (0%)
  226. Title                                    : Swedish-PGS
  227. Language                                 : Swedish
  228. Default                                  : No
  229. Forced                                   : No

  230. Menu
  231. 00:00:00.000                             : en:Chapter 01
  232. 00:04:50.498                             : en:Chapter 02
  233. 00:10:51.067                             : en:Chapter 03
  234. 00:17:47.691                             : en:Chapter 04
  235. 00:23:53.014                             : en:Chapter 05
  236. 00:30:00.131                             : en:Chapter 06
  237. 00:33:05.066                             : en:Chapter 07
  238. 00:37:09.310                             : en:Chapter 08
  239. 00:43:42.911                             : en:Chapter 09
  240. 00:50:47.335                             : en:Chapter 10
  241. 00:55:02.716                             : en:Chapter 11
  242. 00:59:48.459                             : en:Chapter 12
  243. 01:06:27.233                             : en:Chapter 13
  244. 01:14:32.092                             : en:Chapter 14
  245. 01:18:26.410                             : en:Chapter 15
  246. 01:23:07.899                             : en:Chapter 16
  247. 01:28:04.654                             : en:Chapter 17
  248. 01:33:10.876                             : en:Chapter 18
  249. 01:37:13.744                             : en:Chapter 19
  250. 01:44:39.189                             : en:Chapter 20
  251. 01:47:47.335                             : en:Chapter 21
复制代码









分享到:  QQ好友和群QQ好友和群
收藏收藏1
开通VIP免费下载本站所有资源---点这里
新手必看:资源下载常见问题---点这里
回复

使用道具 举报

2#
发表于 4 天前 | 只看该作者
期待已久的高清资源了!!!!
开通VIP免费下载本站所有资源---点这里
新手必看:资源下载常见问题---点这里
回复 支持 反对

使用道具 举报

3#
发表于 4 天前 | 只看该作者

这东西我收了!谢谢楼主!蓝光电影网真好!
开通VIP免费下载本站所有资源---点这里
新手必看:资源下载常见问题---点这里
回复 支持 反对

使用道具 举报

4#
发表于 3 天前 | 只看该作者
[color=Red]楼主发贴辛苦了,谢谢楼主分享!
开通VIP免费下载本站所有资源---点这里
新手必看:资源下载常见问题---点这里
回复 支持 反对

使用道具 举报

5#
发表于 3 天前 | 只看该作者
感谢楼主发片
开通VIP免费下载本站所有资源---点这里
新手必看:资源下载常见问题---点这里
回复 支持 反对

使用道具 举报

6#
发表于 3 天前 | 只看该作者
本帖最后由 我国人工 于 2019-10-16 13:39 编辑

开通VIP免费下载本站所有资源---点这里
新手必看:资源下载常见问题---点这里
回复 支持 反对

使用道具 举报

7#
发表于 3 天前 | 只看该作者
看着总感觉怪怪的
开通VIP免费下载本站所有资源---点这里
新手必看:资源下载常见问题---点这里
回复 支持 反对

使用道具 举报

8#
发表于 3 天前 | 只看该作者
楼主发贴辛苦了,谢谢楼主分享!我觉得蓝光电影网是注册对了!
开通VIP免费下载本站所有资源---点这里
新手必看:资源下载常见问题---点这里
回复 支持 反对

使用道具 举报

9#
发表于 前天 10:20 | 只看该作者

期待已久的高清资源了!!!!
开通VIP免费下载本站所有资源---点这里
新手必看:资源下载常见问题---点这里
回复 支持 反对

使用道具 举报

10#
发表于 前天 10:44 | 只看该作者
今天刚刚发现这样一个好网站,支持!
开通VIP免费下载本站所有资源---点这里
新手必看:资源下载常见问题---点这里
回复 支持 反对

使用道具 举报

懒得打字嘛,点击右侧快捷回复 【右侧内容,后台自定义】
您需要登录后才可以回帖 登录 | 立即加入

本版积分规则

现在加入蓝光电影网,注册一个账号

QQ| 手机版|小黑屋| 蓝光电影网 |网站地图

Copyright © 2015-2019 Comsenz Inc.  Template by 蓝光电影论坛 All Rights Reserved.

Powered by 蓝光电影网 X3.4

特别声明:本站所有资源均由网上收集而来,版权归原影音公司所有,如果侵犯了你的权益,请通知我们,我们会及时删除侵权内容.

快速回复 返回顶部 返回列表
澳门网上博彩攻略-网上博彩攻略-澳门bbin网址-澳门体育网址-蓝光电影网