找回密码

蓝光电影网

查看: 314|回复: 11
打印 上一主题 下一主题

[10bit.HDR] 美国黑帮/犯罪帝国 American.Gangster.2007.EXTENDED.2160p.UHD.BluRay.X265.10bit.HDR.DTS-X.7.1-WhiteRhino 48.88GB

[复制链接]

 成长值: 1840

跳转到指定楼层
1#


译  名 美国黑帮 / 犯罪帝国 / 美国土匪
片  名 American Gangster
年  代 2007
产  地 美国
类  别 剧情 / 犯罪
语  言 英语
上映日期 2007-11-02(美国)
IMDb评分  7.8/10 from 371827 users
IMDb链接  https://www.imdb.com/title/tt0765429
豆瓣评分 7.9/10 from 37813 users
豆瓣链接 https://movie.douban.com/subject/1578503/
片  长 157 分钟
导  演 Ridley Scott
编  剧 Steven Zaillian / Mark Jacobson
主  演 丹泽尔·华盛顿 Denzel Washington
       罗素·克劳 Russell Crowe
       切瓦特·埃加福特 Chiwetel Ejiofor
       乔什·布洛林 Josh Brolin
       里玛莉·娜妲 Lymari Nadal
       泰德·拉文 Ted Levine
       罗杰·格午埃文·史密斯 Roger Guenveur Smith
       约翰·浩克斯 John Hawkes
       RZA
       尤尔·瓦斯克斯 Yul Vazquez
       Malcolm Goodwin
       露比·迪 Ruby Dee
       Ruben Santiago-Hudson
       卡拉·古奇诺 Carla Gugino
       Skyler Fortgang


标  签 黑帮 | 美国 | 犯罪 | DenzelWashington | 美国黑帮 | 美国电影 | RussellCrowe | 2007

简  介  

  上世纪70年代,哈莱姆黑人区,弗兰克?卢卡斯(丹泽尔?华盛顿 饰)是黑帮老大约翰逊的司机。约翰逊暴毙后,弗兰克充分利用了这个来之不易的机会,将地下世界的所有权利分配进行了重组,成功上位,接手大佬事业,掌控了毒品交易大权。期间他远赴东南亚金三角走私高纯度海洛因,张罗自己的家族兄弟,集结了一帮为他卖命的手下,一股黑暗势力正在兴起。
  另一边,警察里奇?罗伯茨(卢塞尔?克劳 饰)家庭破裂,与主流社会格格不入,整天以一副邋遢鬼模样流连于街头。他慢慢觉察出毒品圈内的风起云涌,,并展开了秘密调查。
  随着调查的深入,罗伯茨和卢卡斯之间的距离越来越短,两个气质相近,惺惺相惜的男人,不可避免地进行正面对决……

获奖情况  

  第80届奥斯卡金像奖(2008)
  最佳女配角(提名) 露比·迪
  最佳艺术指导(提名) 阿瑟·马克斯 / Beth A. Rubino

  第65届金球奖(2008)
  电影类 最佳剧情片(提名)
  电影类 最佳导演(提名) 雷德利·斯科特
  电影类 剧情片最佳男主角(提名) 丹泽尔·华盛顿

  第61届英国电影学院奖(2008)
  电影奖 最佳影片(提名) 雷德利·斯科特 / 布莱恩·格雷泽
  电影奖 最佳原创剧本(提名) 斯蒂文·泽里安
  电影奖 最佳摄影(提名) 哈里斯·萨维德斯
  电影奖 最佳剪辑(提名) 彼得罗·斯卡利亚
  电影奖 最佳原创音乐(提名) 马克·斯特雷滕菲尔德

  第17届MTV电影奖(2008)
  MTV电影奖 最佳男演员(提名) 丹泽尔·华盛顿
  MTV电影奖 最佳反派(提名) 丹泽尔·华盛顿
  1. Video
  2. ID                                       : 1
  3. Format                                   : HEVC
  4. Format/Info                              : High Efficiency Video Coding
  5. Format profile                           : Main High@L4@High
  6. HDR format                               : SMPTE ST 2086, HDR10 compatible
  7. Codec ID                                 : V_MPEGH/ISO/HEVC
  8. Duration                                 : 2 h 55 min
  9. Bit rate                                 : 33.6 Mb/s
  10. Width                                    : 3 840 pixels
  11. Height                                   : 2 076 pixels
  12. Display aspect ratio                     : 1.85:1
  13. Frame rate mode                          : Constant
  14. Frame rate                               : 23.976 (24000/1001) FPS
  15. Color space                              : YUV
  16. Chroma subsampling                       : 4:2:0 (Type 2)
  17. Bit depth                                : 10 bits
  18. Bits/(Pixel*Frame)                       : 0.176
  19. Stream size                              : 41.3 GiB (85%)
  20. Writing library                          : x265 3.2f46aa2bc1c34:[Windows][GCC 9.2.0][64 bit] 10bit
  21. Encoding settings                        : cpuid=1111039 / frame-threads=6 / numa-pools=36 / wpp / no-pmode / no-pme / no-psnr / no-ssim / log-level=2 / input-csp=1 / input-res=3840x2076 / interlace=0 / total-frames=252890 / level-idc=51 / high-tier=1 / uhd-bd=0 / ref=4 / no-allow-non-conformance / repeat-headers / annexb / aud / hrd / info / hash=0 / no-temporal-layers / no-open-gop / min-keyint=1 / keyint=24 / gop-lookahead=0 / bframes=4 / b-adapt=2 / b-pyramid / bframe-bias=0 / rc-lookahead=25 / lookahead-slices=4 / scenecut=40 / radl=0 / no-splice / no-intra-refresh / ctu=64 / min-cu-size=8 / rect / no-amp / max-tu-size=32 / tu-inter-depth=1 / tu-intra-depth=1 / limit-tu=0 / rdoq-level=2 / dynamic-rd=0.00 / no-ssim-rd / signhide / no-tskip / nr-intra=0 / nr-inter=0 / no-constrained-intra / no-strong-intra-smoothing / max-merge=3 / limit-refs=3 / limit-modes / me=3 / subme=3 / merange=57 / temporal-mvp / no-frame-dup / no-hme / weightp / no-weightb / no-analyze-src-pics / deblock=-3:-3 / no-sao / no-sao-non-deblock / rd=4 / selective-sao=0 / no-early-skip / rskip / no-fast-intra / no-tskip-fast / no-cu-lossless / no-b-intra / no-splitrd-skip / rdpenalty=0 / psy-rd=2.00 / psy-rdoq=1.00 / no-rd-refine / no-lossless / cbqpoffs=0 / crqpoffs=0 / rc=crf / crf=21.3 / qcomp=0.60 / qpstep=4 / stats-write=0 / stats-read=0 / vbv-maxrate=160000 / vbv-bufsize=160000 / vbv-init=0.9 / crf-max=0.0 / crf-min=0.0 / ipratio=1.40 / pbratio=1.30 / aq-mode=2 / aq-strength=1.00 / cutree / zone-count=0 / no-strict-cbr / qg-size=32 / no-rc-grain / qpmax=69 / qpmin=0 / no-const-vbv / sar=1 / overscan=0 / videoformat=5 / range=0 / colorprim=9 / transfer=16 / colormatrix=9 / chromaloc=1 / chromaloc-top=2 / chromaloc-bottom=2 / display-window=0 / master-display=G(13250,34500)B(7500,3000)R(34000,16000)WP(15635,16450)L(10000000,50) / cll=1179,501 / min-luma=0 / max-luma=1023 / log2-max-poc-lsb=8 / vui-timing-info / vui-hrd-info / slices=1 / no-opt-qp-pps / no-opt-ref-list-length-pps / no-multi-pass-opt-rps / scenecut-bias=0.05 / no-opt-cu-delta-qp / no-aq-motion / hdr / hdr-opt / no-dhdr10-opt / no-idr-recovery-sei / analysis-reuse-level=5 / scale-factor=0 / refine-intra=0 / refine-inter=0 / refine-mv=1 / refine-ctu-distortion=0 / no-limit-sao / ctu-info=0 / no-lowpass-dct / refine-analysis-type=0 / copy-pic=1 / max-ausize-factor=1.0 / no-dynamic-refine / no-single-sei / no-hevc-aq / no-svt / no-field / qp-adaptation-range=1.00
  22. Default                                  : Yes
  23. Forced                                   : No
  24. Color range                              : Limited
  25. Color primaries                          : BT.2020
  26. Transfer characteristics                 : PQ
  27. Matrix coefficients                      : BT.2020 non-constant
  28. Mastering display color primaries        : Display P3
  29. Mastering display luminance              : min: 0.0050 cd/m2, max: 1000 cd/m2
  30. Maximum Content Light Level              : 1179 cd/m2
  31. Maximum Frame-Average Light Level        : 501 cd/m2

  32. Audio #1
  33. ID                                       : 2
  34. Format                                   : DTS XLL X
  35. Format/Info                              : Digital Theater Systems
  36. Commercial name                          : DTS-HD Master Audio
  37. Codec ID                                 : A_DTS
  38. Duration                                 : 2 h 55 min
  39. Bit rate mode                            : Variable
  40. Bit rate                                 : 5 844 kb/s
  41. Channel(s)                               : 8 channels
  42. Channel(s)_Original                      : Object Based
  43. Channel layout                           : Object Based
  44. Sampling rate                            : 48.0 kHz
  45. Frame rate                               : 93.750 FPS (512 SPF)
  46. Bit depth                                : 24 bits
  47. Stream size                              : 7.18 GiB (15%)
  48. Language                                 : English
  49. Default                                  : Yes
  50. Forced                                   : No

  51. Audio #2
  52. ID                                       : 3
  53. Format                                   : AC-3
  54. Format/Info                              : Audio Coding 3
  55. Commercial name                          : Dolby Digital
  56. Codec ID                                 : A_AC3
  57. Duration                                 : 2 h 55 min
  58. Bit rate mode                            : Constant
  59. Bit rate                                 : 192 kb/s
  60. Channel(s)                               : 2 channels
  61. Channel layout                           : L R
  62. Sampling rate                            : 48.0 kHz
  63. Frame rate                               : 31.250 FPS (1536 SPF)
  64. Bit depth                                : 16 bits
  65. Compression mode                         : Lossy
  66. Stream size                              : 241 MiB (0%)
  67. Title                                    : Commentary with director Ridley Scott and Writter Steven Zaillian
  68. Language                                 : English
  69. Service kind                             : Complete Main
  70. Default                                  : No
  71. Forced                                   : No

  72. Text #1
  73. ID                                       : 4
  74. Format                                   : PGS
  75. Muxing mode                              : zlib
  76. Codec ID                                 : S_HDMV/PGS
  77. Codec ID/Info                            : Picture based subtitle format used on BDs/HD-DVDs
  78. Duration                                 : 2 h 36 min
  79. Bit rate                                 : 41.1 kb/s
  80. Count of elements                        : 4054
  81. Stream size                              : 46.1 MiB (0%)
  82. Language                                 : English
  83. Default                                  : No
  84. Forced                                   : No

  85. Text #2
  86. ID                                       : 5
  87. Format                                   : PGS
  88. Muxing mode                              : zlib
  89. Codec ID                                 : S_HDMV/PGS
  90. Codec ID/Info                            : Picture based subtitle format used on BDs/HD-DVDs
  91. Duration                                 : 2 h 47 min
  92. Bit rate                                 : 41.2 kb/s
  93. Count of elements                        : 5600
  94. Stream size                              : 49.4 MiB (0%)
  95. Language                                 : English
  96. Default                                  : No
  97. Forced                                   : No

  98. Text #3
  99. ID                                       : 6
  100. Format                                   : PGS
  101. Muxing mode                              : zlib
  102. Codec ID                                 : S_HDMV/PGS
  103. Codec ID/Info                            : Picture based subtitle format used on BDs/HD-DVDs
  104. Duration                                 : 2 h 36 min
  105. Bit rate                                 : 25.3 kb/s
  106. Count of elements                        : 3298
  107. Stream size                              : 28.3 MiB (0%)
  108. Language                                 : Spanish
  109. Default                                  : No
  110. Forced                                   : No

  111. Text #4
  112. ID                                       : 7
  113. Format                                   : PGS
  114. Muxing mode                              : zlib
  115. Codec ID                                 : S_HDMV/PGS
  116. Codec ID/Info                            : Picture based subtitle format used on BDs/HD-DVDs
  117. Duration                                 : 2 h 46 min
  118. Bit rate                                 : 34.0 kb/s
  119. Count of elements                        : 4562
  120. Stream size                              : 40.6 MiB (0%)
  121. Language                                 : Spanish
  122. Default                                  : No
  123. Forced                                   : No

  124. Text #5
  125. ID                                       : 8
  126. Format                                   : PGS
  127. Muxing mode                              : zlib
  128. Codec ID                                 : S_HDMV/PGS
  129. Codec ID/Info                            : Picture based subtitle format used on BDs/HD-DVDs
  130. Duration                                 : 2 h 36 min
  131. Bit rate                                 : 32.5 kb/s
  132. Count of elements                        : 3733
  133. Stream size                              : 36.4 MiB (0%)
  134. Language                                 : French
  135. Default                                  : No
  136. Forced                                   : No

  137. Text #6
  138. ID                                       : 9
  139. Format                                   : PGS
  140. Muxing mode                              : zlib
  141. Codec ID                                 : S_HDMV/PGS
  142. Codec ID/Info                            : Picture based subtitle format used on BDs/HD-DVDs
  143. Duration                                 : 2 h 46 min
  144. Bit rate                                 : 33.6 kb/s
  145. Count of elements                        : 4552
  146. Stream size                              : 40.1 MiB (0%)
  147. Language                                 : French
  148. Default                                  : No
  149. Forced                                   : No

  150. Menu
  151. 00:00:00.000                             : en:Chapter 01
  152. 00:06:48.617                             : en:Chapter 02
  153. 00:14:07.263                             : en:Chapter 03
  154. 00:25:42.833                             : en:Chapter 04
  155. 00:32:19.938                             : en:Chapter 05
  156. 00:37:33.585                             : en:Chapter 06
  157. 00:43:48.876                             : en:Chapter 07
  158. 00:51:25.791                             : en:Chapter 08
  159. 00:57:21.521                             : en:Chapter 09
  160. 01:15:30.860                             : en:Chapter 10
  161. 01:20:53.390                             : en:Chapter 11
  162. 01:29:01.252                             : en:Chapter 12
  163. 01:37:22.170                             : en:Chapter 13
  164. 01:44:01.652                             : en:Chapter 14
  165. 01:55:33.885                             : en:Chapter 15
  166. 02:04:59.116                             : en:Chapter 16
  167. 02:13:00.639                             : en:Chapter 17
  168. 02:20:08.525                             : en:Chapter 18
  169. 02:31:52.603                             : en:Chapter 19
  170. 02:48:01.488                             : en:Chapter 20
复制代码










分享到:  QQ好友和群QQ好友和群
收藏收藏
开通VIP免费下载本站所有资源---点这里
新手必看:资源下载常见问题---点这里
回复

使用道具 举报

2#
发表于 5 天前 | 只看该作者
,看看美国大逼的黑帮。
开通VIP免费下载本站所有资源---点这里
新手必看:资源下载常见问题---点这里
回复 支持 反对

使用道具 举报

3#
发表于 5 天前 | 只看该作者
本帖最后由 我国人工 于 2019-10-16 13:37 编辑

开通VIP免费下载本站所有资源---点这里
新手必看:资源下载常见问题---点这里
回复 支持 反对

使用道具 举报

4#
发表于 5 天前 | 只看该作者

楼主太厉害了!楼主,电影应该很好看我觉得蓝光电影网真是个好地方!
开通VIP免费下载本站所有资源---点这里
新手必看:资源下载常见问题---点这里
回复 支持 反对

使用道具 举报

5#
发表于 5 天前 | 只看该作者

这个帖子不回对不起自己!我想我是一天也不能离开蓝光电影网
开通VIP免费下载本站所有资源---点这里
新手必看:资源下载常见问题---点这里
回复 支持 反对

使用道具 举报

6#
发表于 5 天前 | 只看该作者
谢谢楼主啦
开通VIP免费下载本站所有资源---点这里
新手必看:资源下载常见问题---点这里
回复 支持 反对

使用道具 举报

已抛锚 成长值: 20

7#
发表于 4 天前 | 只看该作者

既然你诚信诚意的推荐了,那我就勉为其难的看看吧!蓝光电影网不走平凡路。
开通VIP免费下载本站所有资源---点这里
新手必看:资源下载常见问题---点这里
回复 支持 反对

使用道具 举报

8#
发表于 4 天前 | 只看该作者

我看不错噢 谢谢楼主!蓝光电影网越来越好!
开通VIP免费下载本站所有资源---点这里
新手必看:资源下载常见问题---点这里
回复 支持 反对

使用道具 举报

9#
发表于 4 天前 | 只看该作者
感谢分享美国黑帮
开通VIP免费下载本站所有资源---点这里
新手必看:资源下载常见问题---点这里
回复 支持 反对

使用道具 举报

10#
发表于 3 天前 | 只看该作者
多谢分享
开通VIP免费下载本站所有资源---点这里
新手必看:资源下载常见问题---点这里
回复

使用道具 举报

懒得打字嘛,点击右侧快捷回复 【右侧内容,后台自定义】
您需要登录后才可以回帖 登录 | 立即加入

本版积分规则

现在加入蓝光电影网,注册一个账号

QQ| 手机版|小黑屋| 蓝光电影网 |网站地图

Copyright © 2015-2019 Comsenz Inc.  Template by 蓝光电影论坛 All Rights Reserved.

Powered by 蓝光电影网 X3.4

特别声明:本站所有资源均由网上收集而来,版权归原影音公司所有,如果侵犯了你的权益,请通知我们,我们会及时删除侵权内容.

快速回复 返回顶部 返回列表
澳门网上博彩攻略-网上博彩攻略-澳门bbin网址-澳门体育网址-蓝光电影网